Read More
Read More
Inicio   -   Ayuda   -   Contacto   -   ltimos Torrents

Torrents
Documentales842
Pelculas11256
Pelculas HD2068
Series1961
  Episodios22513
Series HD244
  Episodios2743
Juegos2689
  PC1736
Variados1521
  Deportes36
  Programas592
  Videoclips102
  Otros722
Música MP3 3525
Total Torrents57258

Informacin
Esta web no contiene ningn tipo de fichero almacenado.

Todos los archivos se comparten mediante el BitTorrent, un programa P2P de intercambio entre usuarios.



Descarga la ltima versin de uTorrent y baja a la mxima velocidad:
Justin Bieber - Ill Show You
Total Descargas:  1.813 En Febrero:  1.132

Fecha:  2015-12-06



Torrent:      Descargar         Tamao:  62,76 MB
Descripcin:

General
Format : MPEG-4
Format profile : Base Media / Version 2
Codec ID : mp42
File size : 62.8 MiB
Duration : 3mn 20s
Overall bit rate mode : Variable
Overall bit rate : 2 622 Kbps

Video
ID : 1
Format : AVC
Format/Info : Advanced Video Codec
Format profile : [email protected]
Duration : 3mn 20s
Bit rate : 2 427 Kbps
Width : 1 280 pixels
Height : 720 pixels
Display aspect ratio : 16:9
Frame rate : 23.976 fps
Bit depth : 8 bits
Stream size : 58.1 MiB (93%)

Audio
ID : 2
Format : AAC
Format/Info : Advanced Audio Codec
Duration : 3mn 20s
Bit rate : 192 Kbps
Channel(s) : 2 channels
Channel positions : Front: L R
Sampling rate : 44.1 KHz
Compression mode : Lossy
Stream size : 4.60 MiB (7%)
Language : English



Volver al ndice de Variados







Datos legales


01:46:48
computer