Inicio   -   Ayuda   -   Contacto   -   ltimos Torrents

Torrents
Documentales842
Pelculas11256
Pelculas HD2068
Series1961
  Episodios22513
Series HD244
  Episodios2743
Juegos2689
  PC1736
Variados1521
  Deportes36
  Programas592
  Videoclips102
  Otros722
Música MP3 3525
Total Torrents57258

Informacin
Esta web no contiene ningn tipo de fichero almacenado.

Todos los archivos se comparten mediante el BitTorrent, un programa P2P de intercambio entre usuarios.



Descarga la ltima versin de uTorrent y baja a la mxima velocidad:
Juicy J Ft. Chris Brown & Wiz Khalifa - Talkin Bout
Total Descargas:  1.081 En Febrero:  1.081

Fecha:  2016-04-29



Torrent:      Descargar         Tamao:  121,27 MB
Descripcin:

General

Complete name : Juicy J Ft. Chris Brown & Wiz Khalifa - Talkin' Bout [Music Video] 1080p.MP4
Format : MPEG-4
Format profile : Base Media
Codec ID : isom
File size : 121 MiB
Duration : 4mn 22s
Overall bit rate mode : Variable
Overall bit rate : 3 876 Kbps
Encoded date : UTC 2014-03-11 00:05:05
Tagged date : UTC 2014-03-11 00:05:05

Video
ID : 1
Format : AVC
Format/Info : Advanced Video Codec
Format profile : [email protected]
Format settings, CABAC : Yes
Format settings, ReFrames : 2 frames
Codec ID : avc1
Codec ID/Info : Advanced Video Coding
Duration : 4mn 22s
Bit rate : 3 747 Kbps
Width : 1 920 pixels
Height : 1 080 pixels
Display aspect ratio : 16:9
Frame rate mode : Variable
Frame rate : 23.976 fps
Minimum frame rate : 23.974 fps
Maximum frame rate : 24.463 fps
Color space : YUV
Chroma subsampling : 4:2:0
Bit depth : 8 bits
Scan type : Progressive
Bits/(Pixel*Frame) : 0.075
Stream size : 117 MiB (97%)
Encoded date : UTC 2014-03-11 00:05:05
Tagged date : UTC 2014-03-11 00:05:05

Audio
ID : 2
Format : AAC
Format/Info : Advanced Audio Codec
Format profile : LC
Codec ID : 40
Duration : 4mn 22s
Bit rate mode : Variable
Bit rate : 126 Kbps
Channel(s) : 2 channels
Channel positions : Front: L R
Sampling rate : 44.1 KHz
Compression mode : Lossy
Stream size : 3.93 MiB (3%)
Encoded date : UTC 2014-03-11 00:04:37
Tagged date : UTC 2014-03-11 00:04:37



Volver al ndice de Variados







Datos legales


10:49:01
computer