VideoHive - Unfold Photo Slideshow 164176
VideoHive - Winter Photo Slideshow 3684881
Inicio   -   Ayuda   -   Contacto   -   ltimos Torrents

Torrents
Documentales842
Pelculas11256
Pelculas HD2068
Series1961
  Episodios22513
Series HD244
  Episodios2743
Juegos2689
  PC1736
Variados1521
  Deportes36
  Programas592
  Videoclips102
  Otros722
Música MP3 3525
Total Torrents57258

Informacin
Esta web no contiene ningn tipo de fichero almacenado.

Todos los archivos se comparten mediante el BitTorrent, un programa P2P de intercambio entre usuarios.



Descarga la ltima versin de uTorrent y baja a la mxima velocidad:
Britney Spears - Work Bitch
Total Descargas:  2.998 En Febrero:  2.998

Fecha:  2016-08-01



Torrent:      Descargar         Tamao:  52,68 MB
Descripcin:

General

Format : MPEG-4
Format profile : Base Media
Codec ID : isom
File size : 52.7 MiB
Duration : 3mn 54s
Overall bit rate mode : Variable
Overall bit rate : 1 882 Kbps

Video
ID : 1
Format : AVC
Format profile : [email protected]
Format settings, CABAC : Yes
Format settings, ReFrames : 3 frames
Duration : 3mn 54s
Source duration : 3mn 54s
Bit rate : 1 787 Kbps
Maximum bit rate : 5 085 Kbps
Width : 1 280 pixels
Height : 720 pixels
Display aspect ratio : 16:9
Frame rate mode : Variable
Frame rate : 23.976 fps
Stream size : 50.0 MiB (95%)
Title : Britney Spears - Work Bitch 720p x264 AAC E-Subs [GWC]

Audio
Format : AAC
Format profile : LC
Duration : 3mn 54s
Bit rate mode : Variable
Channel(s) : 2 channels
Sampling rate : 48.0 KHz
Stream size : 2.61 MiB (5%)
Language : English
Text
Format : Timed Text
Codec ID : tx3g
Duration : 3mn 50s
Bit rate mode : Variable
Bit rate : 100 bps
Stream size : 2.82 KiB (0%)
Title : English Subtitle by [GWC]
Language : English



Volver al ndice de Variados







Datos legales


17:21:46
computer